Kategorie
Ranking
RSS
Hosting zapewnia

Google+
Programy

Statystyki
Użytkowników:
Zarejestrowanych wczoraj:
Zarejestrowanych dzisiaj:
Torrentów:
Dodanych wczoraj:
Dodanych dzisiaj:
Warezów:
Dodanych wczoraj:
Dodanych dzisiaj:
67,459
33
3
146,775
94
5
4,550
0
0
Ostatnie 30
Popularne
w Czerwcu
==Torrent==
Kategoria: TV/Seriale » Komedia


Dodał: Lukarusi
Data dodania:
2017-05-11 18:01:44
Rozmiar: 319.97 MB
Seedów: 4
Peerów: 4
Pobrano: 791 razy
Kondycja:









Ucho Prezesa odc. 15 - Operacja Celofan [720p.WEBRip.x264.AC3] [PL]



produkcja: PL
gatunek: Komedia
twórca: Robert Górski
reżyseria: Tadeusz Śliwa
czas trwania: ok. 16 min.



Satyryczny serial o polskiej polityce rozgrywa się w wyobrażonym gabinecie prezesa, gdzie pani Basia i Mariusz troszczą się o prezesa, jak tylko potrafią. W każdym odcinku gabinet odwiedzają goście, którzy chcieliby szepnąć coś prezesowi na ucho.



Robert Górski - Prezes Jarosław
Mikołaj Cieślak - Mariusz
Izabela Dąbrowska - pani Basia
Michał Czernecki - prezes telewizji Jacek
Robert Majewski - prezes Rady Mediów Narodowych
Paweł Koślik - prezydent
Wojciech Kalarus - Antoni, minister wojny
Grzegorz Ciągardlak - Misio
Sebastian Stankiewicz - pan Tomek, syn pani Basi
Sebastian Konrad - wicepremier, minister rozwoju
Katarzyna Żak - Jola pielęgniarka
Agnieszka Wosińska - rzecznik Beata
Adam Krawczuk - Adam od PR-u
Magdalena Smalara - Ania, minister edukacji



Format : Matroska
Format version : Version 4 / Version 2
File size : 320 MiB
Duration : 16mn 29s
Overall bit rate : 2 711 Kbps
Encoded date : UTC 2017-05-11 15:52:16

Video
ID : 1
Format : AVC
Format/Info : Advanced Video Codec
Format profile : [email protected]
Format settings, CABAC : Yes
Format settings, ReFrames : 5 frames
Codec ID : V_MPEG4/ISO/AVC
Duration : 16mn 29s
Bit rate : 2 500 Kbps
Width : 1 280 pixels
Height : 720 pixels
Display aspect ratio : 16:9
Frame rate mode : Constant
Frame rate : 29.970 fps
Color space : YUV
Chroma subsampling : 4:2:0
Bit depth : 8 bits
Scan type : Progressive
Bits/(Pixel*Frame) : 0.091
Stream size : 287 MiB (90%)
Writing library : x264 core 148 r2721
Color primaries : BT.709
Transfer characteristics : BT.709
Matrix coefficients : BT.709

Audio
ID : 2
Format : AC-3
Format/Info : Audio Coding 3
Mode extension : CM (complete main)
Format settings, Endianness : Big
Codec ID : A_AC3
Duration : 16mn 29s
Bit rate mode : Constant
Bit rate : 224 Kbps
Channel(s) : 2 channels
Channel positions : Front: L R
Sampling rate : 48.0 KHz
Bit depth : 16 bits
Compression mode : Lossy
Stream size : 26.4 MiB (8%)
Language : Polish

Lista plikówShow/Hide [Pokaż/Ukryj]
Trackery
Tracker URLSeedówPeerówPobrań
udp://eddie4.nl:6969/announce110
udp://shadowshq.eddie4.nl:6969/announce110
http://tracker.tfile.me/announce110
http://agusiq-torrents.pl:6969/announce110
http://mgtracker.org:2710/announce000
udp://tracker.glotorrents.com:6969/announce000
udp://torrent.gresille.org:80/announce000
udp://tracker.pomf.se:80/announce000
udp://10.rarbg.com/announce000
udp://tracker.openbittorrent.com:80/announce000
udp://sugoi.pomf.se:80/announce000
udp://poloniumsurfer.tk:6969/announce000
udp://9.rarbg.me:2740/announce000
udp://t1.pow7.com/announce000
udp://9.rarbg.com:2710/announce000
udp://tracker.publicbt.com/announce000
http://tracker.torrentyorg.pl/announce000
udp://tracker.torrentbay.to:6969/announce000
udp://tracker.prq.to/announce000
http://tracker.filetracker.pl:8089/announce000
udp://tracker.leechers-paradise.org:6969/announce000
udp://exodus.desync.com:6969/announce000
udp://tracker.istole.it:80/announce000
http://retracker.omsk.ru:2710/announce

Komentarze

Brak komentarzy!

Dodawanie komentarza
Komentujesz torrenta:
Ucho Prezesa odc. 15 - Operacja Celofan [720p.WEBRip.x264.AC3] [PL]

NAJCZĘŚCIEJ POBIERANE

stat4u Najlepsze strony Torrentowe Torrenty